.
Авторизация | Регистрация
Хочешь лучшие торренты? Добавь свой email!
Добавить
» » Алексей Брянцев Ирина Круг - Новое и лучшее (2013) FLAC скачать торрент бесплатно




    Алексей Брянцев Ирина Круг - Новое и лучшее (2013) FLAC скачать торрент бесплатно

    Опубликовал: Админ | Дата: 27-02-2015, 11:09 | Просмотров: 1448

    Алексей Брянцев Ирина Круг - Новое и лучшее (2013) FLAC

    Музыкальный релиз: Новое и лучшее
    Автор: Алексей Брянцев Ирина Круг
    Год выпуска: 2013
    Направление: шансон

    Время прослушивания: 44:46
    Аудио кодек: FLAC
    Музыкальный битрейт: lossless


    Трек-лист

    03:47 01. Любимый взгляд
    03:57 02. Заходи ко мне во сне
    03:11 03. Только ты
    03:26 04. Если бы не ты
    03:31 05. Как будто мы с тобой
    03:37 06. В сердце твоем
    04:15 07. Просто ты одна
    04:20 08. Я буду помнить (Малыш, привет)
    04:09 09. Вернется к нам любовь
    03:55 10. Когда зима в душе пройдет
    03:15 11. Привет, малыш
    Бонус
    03:18 12. Скажи (дуэт А.Брянцев и Е. Касьянова)
    Лог создания рипа
    Exact Audio Copy V1.0 beta 3 from 29. August 2011

    Отчёт EAC об извлечении, выполненном 9. марта 2013, 11:27

    А.Брянцев и Ирина Круг / Новое и лучшее

    Дисковод: TSSTcorpCDDVDW TS-L633J Adapter: 0 ID: 1

    Режим чтения : Достоверность
    Использование точного потока : Да
    Отключение кэша аудио : Да
    Использование указателей C2 : Нет

    Коррекция смещения при чтении : 6
    Способность читать области Lead-in и Lead-out : Нет
    Заполнение пропущенных сэмплов тишиной : Да
    Удаление блоков с тишиной в начале и конце : Нет
    При вычислениях CRC использовались нулевые сэмплы : Да
    Интерфейс : Встроенный Win32-интерфейс для Win NT/2000

    Выходной формат : Пользовательский кодировщик
    Выбранный битрейт : 1024 kBit/s
    Качество : Высокий
    Добавление ID3-тега : Нет
    Утилита сжатия : C:Program Files (x86)Exact Audio CopyFLACFLAC.EXE
    Дополнительные параметры : -8 -V -T ARTIST=%artist% -T TITLE=%title% -T ALBUM=%albumtitle% -T DATE=%year% -T TRACKNUMBER=%tracknr% -T GENRE=%genre% -T COMMENT=%comment% -T BAND=%albuminterpret% -T ALBUMARTIST=%albuminterpret% -T COMPOSER=%composer% %haslyrics%--tag-from-file=LYRICS=%lyricsfile%%haslyrics% -T DISCNUMBER=Нnumber% -T TOTALDISCS=%totalcds% -T TOTALTRACKS=%numtracks% %hascover%--picture=%coverfile%%hascover% %source% -o Юst%

    TOC извлечённого CD

    Трек | Старт | Длительность | Начальный сектор | Конечный сектор
    ---------------------------------------------------------------------
    1 | 0:00.00 | 3:47.45 | 0 | 17069
    2 | 3:47.45 | 3:56.73 | 17070 | 34842
    3 | 7:44.43 | 3:11.64 | 34843 | 49231
    4 | 10:56.32 | 3:26.12 | 49232 | 64693
    5 | 14:22.44 | 3:31.17 | 64694 | 80535
    6 | 17:53.61 | 3:37.63 | 80536 | 96873
    7 | 21:31.49 | 4:15.20 | 96874 | 116018
    8 | 25:46.69 | 4:20.12 | 116019 | 135530
    9 | 30:07.06 | 4:09.34 | 135531 | 154239
    10 | 34:16.40 | 3:55.03 | 154240 | 171867
    11 | 38:11.43 | 3:15.61 | 171868 | 186553
    12 | 41:27.29 | 3:18.31 | 186554 | 201434

    Характеристики диапазона извлечения и сообщения об ошибках

    Выбранный диапазон

    Имя файла D: А.Брянцев и Ирина Круг - Новое и лучшее.2013А.Брянцев и Ирина Круг - Новое и лучшее.wav

    Пиковый уровень 100.0 %
    Скорость извлечения 2.7 X
    Качество диапазона 100.0 %
    CRC теста AE49AC33
    CRC копии AE49AC33
    Копирование... OK

    Ошибок не произошло

    AccurateRip: сводка

    Трек 1 отсутствует в базе данных
    Трек 2 отсутствует в базе данных
    Трек 3 отсутствует в базе данных
    Трек 4 отсутствует в базе данных
    Трек 5 отсутствует в базе данных
    Трек 6 отсутствует в базе данных
    Трек 7 отсутствует в базе данных
    Трек 8 отсутствует в базе данных
    Трек 9 отсутствует в базе данных
    Трек 10 отсутствует в базе данных
    Трек 11 отсутствует в базе данных
    Трек 12 отсутствует в базе данных

    Ни одного трека нет в базе AccurateRip

    Конец отчёта

    ==== Контрольная сумма отчёта DB45F90D46F9473B7B7397EEC9CA3C2D2FE5A3D6E573B9E03163B1469FCC2670 ====
    Содержание индексной карты (.CUE)
    REM DATE 2013
    REM DISCID BA0A7D0C
    REM COMMENT ExactAudioCopy v1.0b3
    PERFORMER А.Брянцев и Ирина Круг
    TITLE Новое и лучшее
    FILE А.Брянцев и Ирина Круг - Новое и лучшее.flac WAVE
    TRACK 01 AUDIO
    TITLE Любимый взгляд
    PERFORMER А.Брянцев и Ирина Круг
    INDEX 01 00:00:00
    TRACK 02 AUDIO
    TITLE Заходи ко мне во сне
    PERFORMER А.Брянцев и Ирина Круг
    INDEX 01 03:47:45
    TRACK 03 AUDIO
    TITLE Только ты
    PERFORMER А.Брянцев и Ирина Круг
    INDEX 01 07:44:43
    TRACK 04 AUDIO
    TITLE Если бы не ты
    PERFORMER А.Брянцев и Ирина Круг
    INDEX 01 10:56:32
    TRACK 05 AUDIO
    TITLE Как будто мы с тобой
    PERFORMER А.Брянцев и Ирина Круг
    INDEX 01 14:22:44
    TRACK 06 AUDIO
    TITLE В сердце твоем
    PERFORMER А.Брянцев и Ирина Круг
    INDEX 01 17:53:61
    TRACK 07 AUDIO
    TITLE Просто ты одна
    PERFORMER А.Брянцев и Ирина Круг
    INDEX 01 21:31:49
    TRACK 08 AUDIO
    TITLE Я буду помнить (Малыш, привет)
    PERFORMER А.Брянцев и Ирина Круг
    INDEX 01 25:46:69
    TRACK 09 AUDIO
    TITLE Вернется к нам любовь
    PERFORMER А.Брянцев и Ирина Круг
    INDEX 01 30:07:06
    TRACK 10 AUDIO
    TITLE Когда зима в душе пройдет
    PERFORMER А.Брянцев и Ирина Круг
    INDEX 01 34:16:40
    TRACK 11 AUDIO
    TITLE Привет, малыш
    PERFORMER А.Брянцев и Ирина Круг
    INDEX 01 38:11:43
    TRACK 12 AUDIO
    TITLE Скажи
    PERFORMER А.Брянцев и Е. Касьянова
    INDEX 01 41:27:29

    Залил: -=DoMiNo=-
    Размер скачиваемого торрента: 344.92 MB (361670333 Bytes)

    Алексей Брянцев Ирина Круг - Новое и лучшее (2013) FLAC торрент скачать бесплатно
    Рейтинг →
     (голосов: 1, оценка 5/5, голосовать можно 1 раз )

    Другие торренты по теме:

  • Алексей Брянцев - Дискография (4CD) (2007-2013) MP3
  • Алексей Брянцев - Сборник
  • Алексей Брянцев - От тебя и до тебя... (2017) FLAC
  • Алексей Брянцев и Елена Касьянова - Любовь на двоих (2017) MP3


    • Комментарии (0):

      Информация

      Информация

        Посетители, находящиеся в группе Гости, не могут оставлять комментарии в данной новости.

        ↓ Меню



        ↓ Опрос

        А Вы добавили сайт в закладки?
        Да
        Не


        Top 10 за месяц (Музыка)