.
Авторизация | Регистрация
Хочешь лучшие торренты? Добавь свой email!
Добавить
» » Код Гиас: Восставший Лелуш / Code Geass: Lelouch of the Rebellion (2006-2007) BDRip 720p | KANSAI STUDIO скачать торрент бесплатно


    Код Гиас: Восставший Лелуш / Code Geass: Lelouch of the Rebellion (2006-2007) BDRip 720p | KANSAI STUDIO скачать торрент бесплатно

    Опубликовал: Админ | Дата: 12-06-2015, 10:59 | .torrent скачали: 229


    Код Гиас: Восставший Лелуш / Code Geass: Lelouch of the Rebellion (2006-2007) BDRip 720p | KANSAI STUDIO
    Детально о кино
    Русское название: Код Гиас: Восставший Лелуш
    Русское название в мировом прокате: Code Geass: Lelouch of the Rebellion
    Создали в: 2006 - 2007
    Категория жанра: приключения, фантастика, меха, драма
    Главный режиссер: Танигути Горо
    Художник: Хисинума Ёсинори

    Актеры
    Фукуяма Дзюн, Сакурай Такахиро, Ногами Юкана, Косимидзу Ами, Надзука Каори, Орикаса Фумико, Охара Саяка

    Сюжет фильма

    Альтернативная реальность: Британская Империя захватила треть мира, обрушивая на непокорных мощь своей военной машины.
    В Японии, захваченной и переименованной в Зону 11, вместе с младшей сестрой живёт старшеклассник Лелуш – изгнанный сын Императора, потерявший мать и право на престол. Юноша отличается от сверстников не только происхождением – он весьма одарённая личность, только где применить эти способности? Неожиданно Лелуш оказывается вовлечён в столкновение между японскими террористами и британскими солдатами. Так он знакомится с загадочной девушкой C.C. Она дарует ему сверхъестественную способность Гиасс, позволяющую подчинять себе волю других людей.
    Скрыв своё лицо маской, под именем Зеро Лелуш присоединяется к подпольному движению, горя желанием отомстить Британии и отцу. Будучи студентом Академии Ашфорд, юноша вынужден вести двойную жизнь. Но не ему одному приходится скрывать своё лицо и свои подлинные цели от окружающих...
    Снималось в: Япония
    Киностудия: Sunrise, CLAMP
    Время просмотра: 00: 24: 00
    Язык: Русский
    Перевод текста: Профессиональный многоголосый закадровый (KANSAI STUDIO)
    Файл
    Качество фильма: BDRip 720p
    Тип видео: MP4
    Кодек для видео: x264
    Информация о видео: 1280x720, 23.976 fps, ~1800 kbps
    Информация о звуке: Аудио кодек: AAC
    Аудио RUS: 48.0 kHz, AAC, 2 ch, 224 kbps
    Скриншоты

    Список эпизодов
    01. The Day the Evil was Born
    02. The Awakening of the White Knight
    03. A Lying Classmate
    04. The Name is Zero
    05. The Princess And The Witch
    06. The Stolen Mask
    07. Attack Cornelia
    08. The Black Knights
    09. Refrain
    10. The Crimson Lotus Dances
    11. Narita Battle
    12. Messenger From Kyoto
    13. Shirley And Gunpoint
    14. Geass Vs. Geass
    15. Acclaiming Mao
    16. Captured Nunnally
    17. Knight
    18. Orders to Kururugi Suzaku
    19. God;s Island
    20. Kyuushuu War
    21. School Festival Announcement
    22. Bloodstained Euphie
    23. At Least With Sorrow
    24. The Collapsing Stage
    25. Zero
    MediaInfo
    General
    Format : MPEG-4
    Format profile : Base Media
    Codec ID : isom
    File size : 347 MiB
    Duration : 24mn 8s
    Overall bit rate mode : Variable
    Overall bit rate : 2 009 Kbps
    Encoded date : UTC 2015-06-11 01: 54: 13
    Tagged date : UTC 2015-06-11 01: 54: 13
    Writing application : Yamb 2.1.0.0
    Video
    ID : 1
    Format : AVC
    Format/Info : Advanced Video Codec
    Format profile : High@L4.1
    Format settings, CABAC : Yes
    Format settings, ReFrames : 9 frames
    Codec ID : avc1
    Codec ID/Info : Advanced Video Coding
    Duration : 24mn 8s
    Bit rate : 1 781 Kbps
    Maximum bit rate : 17.0 Mbps
    Width : 1 280 pixels
    Height : 720 pixels
    Display aspect ratio : 16: 9
    Frame rate mode : Constant
    Frame rate : 23.976 fps
    Color space : YUV
    Chroma subsampling : 4: 2: 0
    Bit depth : 8 bits
    Scan type : Progressive
    Bits/(Pixel*Frame) : 0.081
    Stream size : 308 MiB (89%)
    Writing library : x264 core 130 r2273 b3065e6
    Encoding settings : cabac=1/ref=9/deblock=1: -2: -2/analyse=0x3: 0x133/me=umh/subme=9/psy=1/psy_rd=1.00: 0.00/mixed_ref=1/me_range=24/chroma_me=1/trellis=2/8x8dct=1/cqm=0/deadzone=21, 11/fast_pskip=1/chroma_qp_offset=-2/threads=6/lookahead_threads=1/sliced_threads=0/nr=0/decimate=1/interlaced=0/bluray_compat=0/constrained_intra=0/bframes=8/b_pyramid=2/b_adapt=2/b_bias=0/direct=1/weightb=1/open_gop=0/weightp=2/keyint=250/keyint_min=23/scenecut=40/intra_refresh=0/rc_lookahead=60/rc=crf/mbtree=1/crf=17.5/qcomp=0.60/qpmin=0/qpmax=69/qpstep=4/ip_ratio=1.40/aq=1: 1.00
    Encoded date : UTC 2015-06-10 18: 18: 55
    Tagged date : UTC 2015-06-11 01: 54: 20
    Audio
    ID : 2
    Format : AAC
    Format/Info : Advanced Audio Codec
    Format profile : LC
    Codec ID : 40
    Duration : 24mn 8s
    Bit rate mode : Variable
    Bit rate : 224 Kbps
    Maximum bit rate : 230 Kbps
    Channel(s) : 2 channels
    Channel positions : Front: L R
    Sampling rate : 48.0 KHz
    Compression mode : Lossy
    Stream size : 38.7 MiB (11%)
    Title : Kansai
    Language : Russian
    Encoded date : UTC 2015-06-11 01: 54: 19
    Tagged date : UTC 2015-06-11 01: 54: 20
    Раздача ведется путем добавления новых серий
    Когда раздача ведётся путём добавления новых серий, при каждом добавлении создётся новый торрент. Чтобы начать докачку новой серии, пользователям необходимо сделать следующее:
    (1) остановить скачивание,
    (2) удалить старый торрент у себя из клиента (старые серии удалять не надо),
    (3) скачать новый торрент и запустить его у себя в клиенте вместо старого, при этом указать клиенту путь в старую папку, куда и должно происходить скачивание новых серий.
    Ваш клиент при этом должен произвести хеширование (проверку) старой папки (если не производит сам - помогите ему сделать это), и будет докачивать только те серии, которых у вас ещё нет. Старые серии при этом не удаляются, а продолжают раздаваться!
    Eсли вы уже удалили старые серии, то предотвратить повторную закачку старых серий можно, отжав галочку в соответсвующих местах при запуске нового торрента. По возможности, желательно не удалять старые серии как можно дольше, чтобы релизёр не столько продолжал раздавать старые серии, а смог сконцентрироваться на новых.


    Онлайн видео Код Гиас: Восставший Лелуш


    Размер скачиваемого торрента: 346.88 MB (363730035 Bytes)

    Код Гиас: Восставший Лелуш/Code Geass: Lelouch of the Rebellion (2006-2007) BDRip 720p | KANSAI STUDIO
    Рейтинг →
     (голосов: 1, оценка 3/5, голосовать можно 1 раз )

    Другие торренты по теме:

  • Код Гиас: Отступник Акито OVA / Code Geass: Boukoku no Akito (2012-2016) BDRip 720p от AniDUB | L2
  • Код Гиас: Отступник Акито / Code Geass: Boukoku no Akito (2012-2016) BDRip-HEVC 1080p | AniDUB
  • Код Гиас: Восставший Лелуш 2 / Code Geass: Lelouch of the Rebellion R2 (2008) BDRip-HEVC 1080p | AniLibria
  • Код Гиас: Восставший Лелуш / Code Geass: Lelouch of the Rebellion R1 (2006-2007) BDRip-HEVC 1080p | AniLibria
  • Код Гиас: Восставший Лелуш I - Пробуждение / Code Geass: Hangyaku no Lelouch I - Koudou (2017) BDRip 720p | L1
  • Код Гиас: Восставший Лелуш I — Пробуждение / Code Geass: Hangyaku no Lelouch I - Koudou (2017) BDRip 720p | L1


    • Комментарии (0):

      Информация

      Информация

        Посетители, находящиеся в группе Гости, не могут оставлять комментарии в данной новости.

        ↓ Меню




        ↓ Опрос

        А Вы добавили сайт в закладки?
        Да
        Не


        Top 10 за месяц (Мультфильмы)