.
Авторизация | Регистрация
Хочешь лучшие торренты? Добавь свой email!
Добавить
» » Роботы Болт и Блип / Bolts Blip (2010) DVDRip от Youtracker | P скачать торрент бесплатно




    Роботы Болт и Блип / Bolts Blip (2010) DVDRip от Youtracker | P скачать торрент бесплатно

    Опубликовал: Админ | Дата: 27-02-2015, 11:09 | Просмотров: 381


    Год выпуска: 2010
    Страна: Канада, Корея Южная
    Жанр: мультфильм, фантастика, семейный
    Продолжительность: 26 х ~00:21:00

    Перевод: Профессиональный (многоголосый, закадровый)
    Оригинальная аудиодорожка: нет
    Русские субтитры: нет

    Режиссёр: Тим Дикон / Tim Deacon, Питер Лепениотис / Peter Lepeniotis

    Роли озвучивали: Мелисса Альтро, Гленн Колсон, Стэйси ДеПасс, Ричард Фицпатрик, Колин Фокс, Патрик Гэрроу, Дуэйн Хилл, Мартин Жюльен, Терри Макгуррин, Мэтт Мюррэй...

    Описание: Болт и Блип — два робота-чудака. Они живут на Луне и постоянно находят невероятные приключения на свои шестеренки. Впрочем, без приключений (а также без роботесс) скучно жить и роботу.




    Раздача от:
    Исходник: 5 х DVD5 R5 DVD9 R5
    Качество: DVDRip
    Формат: AVI

    Видео: 704x400 (16:9), 25 fps, XViD ~ 2000 kbps avg, 0.284 bit/pixel
    Аудио: 48 kHz, AC3, 2 ch, 192.00 kbps, русский

    MediaInfo

    Общее
    Полное имя : Roboty.Bolt.i.Blip.2010.P.DVDRip_Youtracker_by_avproh?1.avi
    Формат : AVI
    Формат/Информация : Audio Video Interleave
    Размер файла : 341 Мбайт
    Продолжительность : 21 м.
    Общий поток : 2200 Кбит/сек
    Программа кодирования : VirtualDubMod 1.5.10.3 | www.virtualdub-fr.org || (build 2550/release)
    Библиотека кодирования : VirtualDubMod build 2550/release

    Видео
    Идентификатор : 0
    Формат : MPEG-4 Visual
    Профиль формата : Advanced Simple@L5
    Параметр BVOP формата : 1
    Параметр QPel формата : Нет
    Параметр GMC формата : Без точки перехода
    Параметр матрицы формата : Выборочная
    Идентификатор кодека : XVID
    Идентификатор кодека/Подсказка : XviD
    Продолжительность : 21 м.
    Битрейт : 1998 Кбит/сек
    Ширина : 704 пикселя
    Высота : 400 пикселей
    Соотношение сторон : 16:9
    Частота кадров : 25,000 кадров/сек
    Цветовое пространство : YUV
    Субдискретизация насыщенности : 4:2:0
    Битовая глубина : 8 бит
    Тип развёртки : Прогрессивная
    Метод сжатия : С потерями
    Бит/(Пиксели*Кадры) : 0.284
    Размер потока : 310 Мбайт (91%)
    Библиотека кодирования : XviD 64

    Аудио
    Идентификатор : 1
    Формат : AC-3
    Формат/Информация : Audio Coding 3
    Расширение режима : CM (complete main)
    Параметр Endianness формата : Big
    Идентификатор кодека : 2000
    Продолжительность : 21 м.
    Вид битрейта : Постоянный
    Битрейт : 192 Кбит/сек
    Каналы : 2 канала
    Расположение каналов : Front: L R
    Частота : 48,0 КГц
    Битовая глубина : 16 бит
    Метод сжатия : С потерями
    Размер потока : 29,8 Мбайт (9%)
    Выравнивание : Разделение по промежуткам
    Продолжительность промежутка : 40 мс. (1,00 видеокадр)
    Время предзагрузки промежутка : 500 мс.

    Скриншоты



    Залил: avproh
    Размер: 8.66 GB (9298548736 Bytes)
    Рейтинг →
     (голосов: 1, оценка 4/5, голосовать можно 1 раз )

    Другие торренты по теме:

  • Роботы / Robots (2005) BDRip-AVC | iPad | Лицензия
  • Роботы ниндзя / Ниндзя-воин Тобикагэ / Ninja Senshi Tobikage / Ninja Warrior Tobikage (1985-1986) DVDRip
  • Робот Джокс / Роботы бойцы / Robot Jox (1989) HDTVRip (AVC) | P, L2, A
  • Роботы / Robots (2005) BDRip от New-Team | iPhone скачать через торрент бесплатно
  • Роботы / Robots (2005) Blu-Ray Remux 1080p от HDClub | D, P2
  • Роботы / Bola Kampung: The Movie (2013) WebRip | D скачать через торрент бесплатно
  • Роботы / Bola Kampung: The Movie (2013) DVDRip от New-Team | D | лицензия
  • Роботы / Bola Kampung: The Movie (2013) DVD5 R5 от New-Team | D | лицензия


    • Комментарии (0):

      Информация

      Информация

        Посетители, находящиеся в группе Гости, не могут оставлять комментарии в данной новости.

        ↓ Меню



        ↓ Опрос

        А Вы добавили сайт в закладки?
        Да
        Не


        Top 10 за месяц (Мультфильмы)