.
Авторизация | Регистрация
Хочешь лучшие торренты? Добавь свой email!
Добавить
» » Обитель зла Проклятие / Biohazard Damnation / Resident Evil Damnation (2012) BDRip 1080p от R.G. GoldenShara | Лицензия скачать торрент бесплатно




    Обитель зла Проклятие / Biohazard Damnation / Resident Evil Damnation (2012) BDRip 1080p от R.G. GoldenShara | Лицензия скачать торрент бесплатно

    Опубликовал: Админ | Дата: 27-02-2015, 11:09 | Просмотров: 367

    Обитель зла Проклятие / Biohazard Damnation / Resident Evil Damnation (2012) BDRip 1080p от R.G. GoldenShara | Лицензия

    Информация о фильме

    Название: Обитель зла Проклятие
    Оригинальное название: Biohazard Damnation / Resident Evil Damnation
    Год выхода: 2012
    Жанр: Мультфильм, ужасы, фантастика, боевик, триллер
    Режиссер: Макото Камия
    В ролях: Робин Сакс, Кортни Тейлор, Кэролин Лоуренс, Мэттью Мерсер, Уэнди Ли, Дейв Уиттенберг, Салли Саффиоти, Вэл Тассо, Элисон Корт, и др.

    Сюжет фильма: Продолжение популярной компьютерной анимации Обитель зла: Вырождение. Леон Кеннеди отправляется в Восточную Европу на борьбу с монстрами - порождениями корпорации Амбрела. Больше монстров, больше пушек, больше экшена.

    Продолжительность: 01:40:01
    Перевод: Профессиональный (многоголосый) Лицензия
    Выпущено: Япония

    Файл
    Качество: BDRip 1080p
    Видео: 1920x1072, 5802 Кбит/сек, 23,976 кадр/сек, AVC, x264, 16:9, 0.118 Бит/Пиксели*Кадры, 2pass
    Аудио: AC-3, 448 Кбит/сек, 6 канала(ов), 48,0 КГц
    Размер: 4,37 ГБ

    Бюджет Фильма: -
    Кассовые сборы: -

    Релиз от:




    Скриншоты



    MI
    Формат : Matroska
    Версия формата : Version 4 / Version 2
    Размер файла : 4,37 Гбайт
    Продолжительность : 1 ч. 40 м.
    Общий поток : 6251 Кбит/сек
    Дата кодирования : UTC 2010-02-22 21:41:31
    Программа кодирования : mkvmerge v5.9.0 (;On The Loose;) built on Dec 9 2012 15:37:01
    Библиотека кодирования : libebml v1.3.0 libmatroska v1.4.0

    Видео
    Идентификатор : 1
    Формат : AVC
    Формат/Информация : Advanced Video Codec
    Профиль формата : High@L4.0
    Параметр CABAC формата : Да
    Параметр ReFrames формата : 4 кадра
    Идентификатор кодека : V_MPEG4/ISO/AVC
    Продолжительность : 1 ч. 40 м.
    Битрейт : 5802 Кбит/сек
    Ширина : 1920 пикселей
    Высота : 1072 пикселя
    Соотношение сторон : 16:9
    Соотношение сторон в оригинале : 16:9
    Режим частоты кадров : Постоянный
    Частота кадров : 23,976 кадра/сек
    Цветовое пространство : YUV
    Субдискретизация насыщенности : 4:2:0
    Битовая глубина : 8 бит
    Тип развёртки : Прогрессивная
    Бит/(Пиксели*Кадры) : 0.118
    Размер потока : 3,97 Гбайт (91%)
    Заголовок : Resident Evil Damnation
    Библиотека кодирования : x264 core 129 r2230 1cffe9f
    Настройки программы : cabac=1 / ref=3 / deblock=1:0:0 / analyse=0x3:0x133 / me=hex / subme=7 / psy=1 / psy_rd=1.00:0.00 / mixed_ref=1 / me_range=16 / chroma_me=1 / trellis=1 / 8x8dct=1 / cqm=0 / deadzone=21,11 / fast_pskip=1 / chroma_qp_offset=-2 / threads=6 / lookahead_threads=1 / sliced_threads=0 / nr=0 / decimate=1 / interlaced=0 / bluray_compat=0 / constrained_intra=0 / bframes=3 / b_pyramid=2 / b_adapt=1 / b_bias=0 / direct=1 / weightb=1 / open_gop=0 / weightp=2 / keyint=240 / keyint_min=23 / scenecut=40 / intra_refresh=0 / rc_lookahead=40 / rc=2pass / mbtree=1 / bitrate=5802 / ratetol=1.0 / qcomp=0.60 / qpmin=0 / qpmax=69 / qpstep=4 / cplxblur=20.0 / qblur=0.5 / ip_ratio=1.40 / aq=1:1.00
    Язык : English
    Default : Да
    Forced : Нет

    Аудио
    Идентификатор : 2
    Формат : AC-3
    Формат/Информация : Audio Coding 3
    Расширение режима : CM (complete main)
    Параметр Endianness формата : Big
    Идентификатор кодека : A_AC3
    Продолжительность : 1 ч. 40 м.
    Вид битрейта : Постоянный
    Битрейт : 448 Кбит/сек
    Каналы : 6 каналов
    Расположение каналов : Front: L C R, Side: L R, LFE
    Частота : 48,0 КГц
    Битовая глубина : 16 бит
    Метод сжатия : С потерями
    Размер потока : 321 Мбайт (7%)
    Заголовок : MVO
    Язык : Russian
    Default : Да
    Forced : Нет



    Размер: 4.37 GB (4689920650 Bytes)
    Рейтинг →
     (голосов: 1, оценка 3/5, голосовать можно 1 раз )

    Другие торренты по теме:

  • Обитель зла: Вырождение / Resident Evil: Degeneration (2008) DVD5
  • Обитель Зла: Проклятие / Resident Evil: Damnation (2012) BDRemux 1080p
  • Обитель зла: Возмездие / Resident Evil: Retribution (2012) DVD9 от NovaLan
  • Обитель зла 2: Апокалипсис / Resident Evil: Apocalypse (2004) BDRip-AVC от 0ptimus | D, P2, A
  • OST - Обитель зла / Resident Evil 1-5 (2002-2012) MP3
  • Обитель Зла: Проклятие 3Д / Resident Evil: Damnation 3D (2012) BDRip 1080p | 3D-Video
  • Обитель зла 4: Жизнь после смерти / Resident Evil: Afterlife (2010) BDRip 1080p от FREEISLAND | D
  • Обитель зла: Квадрология / Resident Evil: Quadrilogy (2002-2010) BDRemux 1080p


    • Комментарии (0):

      Информация

      Информация

        Посетители, находящиеся в группе Гости, не могут оставлять комментарии в данной новости.

        ↓ Меню



        ↓ Опрос

        А Вы добавили сайт в закладки?
        Да
        Не


        Top 10 за месяц (Мультфильмы)