.
Авторизация | Регистрация
Хочешь лучшие торренты? Добавь свой email!
Добавить
» » Гадкий я 3 / Despicable Me 3 (2017) BDRip 2160p | 4K | HDR | Лицензия скачать торрент бесплатно




    Гадкий я 3 / Despicable Me 3 (2017) BDRip 2160p | 4K | HDR | Лицензия скачать торрент бесплатно

    Опубликовал: Админ | Дата: 14-12-2017, 11:00 | Просмотров: 0



    Детально о кино
    Русское название: Гадкий я 3
    Русское название в мировом прокате: Despicable Me 3
    Создали в: 2017
    Категория жанра: Мультфильм, фантастика, боевик, комедия, приключения, семейный
    Главный режиссер: Эрик Гуильон, Кайл Балда, Пьер Коффан

    Актеры
    Стив Карелл, Кристен Уиг, Трей Паркер, Миранда Косгров, Дэна Гайер, Пьер Коффан, Стив Кугэн, Джули Эндрюс, Дженни Слейт

    Сюжет фильма

    Грядет третье пришествие. Многодетный суперагент, роковая красотка и бессмертные миньоны на подходе. Готовьтесь. Они будут править миром.

    Снималось в: США
    Киностудия: Illumination Entertainment, Universal Pictures
    Время просмотра: 01: 29: 40
    Перевод текста: Дублированный | Лицензия
    Файл
    Кодек для видео: x265
    Качество фильма: UHD BDRip
    Информация о видео: HEVC, 3840x1608, 23.976fps, 15.0 Mbit/s, 10bit, HDR, BT.2020
    Информация о звуке:
    48 kHz, DTS, 5.1, 768 Kbps | Дублированный | RUS |
    48 kHz, AC3, 5.1, 448 Kbps | Дублированный | RUS |
    48 kHz, DTS-HD MA 7.1, 5 524 kb/s | 5.1/1 509 kb/s | Оригинал | ENG |
    48 kHz, AC3, 5.1, 640 Kbps | Оригинал | ENG |
    Субтитры: Русские (forced, full), английские (forced, full), французские, немецкие, голландские, польские.
    Семпл
    Скриншоты

    Внимание!
    - H.265/HEVC (High Efficiency Video Coding) - это новый стандарт кодирования видео.
    - Стандарт H.265/HEVC является логическим продолжением стандарта H.264/AVC (Advanced Video Coding), и характеризуется более эффективными алгоритмами сжатия, а также поддержкой высокого разрешения вплоть до 8K UHD (8192x4320). Первая версия стандарта H.265 была опубликована в начале 2013 года.
    - Рипы в фомате HEVC поддерживается не всеми аппаратными проигрывателями.
    - Для корректного воспроизведения может потребоваться обновление ПО.
    - Владельцам несовместимого железа просьба не беспокоить, есть альтернативные релизы.
    Медиаинфо
    General
    Unique ID : 241119592524442846896035896654050934365 (0xB565F1C067D911118FC7CCDD7E14BE5D)
    Format : Matroska
    Format version : Version 4/Version 2
    File size : 14.2 GiB
    Duration : 1 h 29 min
    Overall bit rate : 22.6 Mb/s
    Movie name : Despicable.Me.3.2017.2160p.BluRay.x265.10bit.HDR.DTS-X.7.1-SWTYBLZ
    Encoded date : UTC 2017-12-12 23: 14: 10
    Writing application : mkvmerge v18.0.0 (;Apricity;) 64-bit
    Writing library : libebml v1.3.5 + libmatroska v1.4.8
    Cover : Yes
    Attachments : cover.jpg
    Video
    ID : 1
    Format : HEVC
    Format/Info : High Efficiency Video Coding
    Format profile : Main 10@L5.1@High
    Codec ID : V_MPEGH/ISO/HEVC
    Duration : 1 h 29 min
    Bit rate : 15.1 Mb/s
    Width : 3 840 pixels
    Height : 1 608 pixels
    Display aspect ratio : 2.40: 1
    Frame rate mode : Constant
    Frame rate : 23.976 (24000/1001) FPS
    Color space : YUV
    Chroma subsampling : 4: 2: 0 (Type 2)
    Bit depth : 10 bits
    Bits/(Pixel*Frame) : 0.102
    Stream size : 9.45 GiB (67%)
    Title : Despicable.Me.3.2017.2160p.BluRay.x265.10bit.HDR.DTS-X.7.1-SWTYBLZ
    Writing library : x265 2.5+4-b4a5bcfe29c7: WindowsGCC 4.9.364 bit 10bit
    Encoding settings : cpuid=1173503/frame-threads=16/numa-pools=24, 24, 24, 24/wpp/no-pmode/no-pme/no-psnr/no-ssim/log-level=2 /
    input-csp=1/input-res=3840x1608/interlace=0/total-frames=0/level-idc=51/high-tier=1/uhd-bd=0/ref=3/no-allow-non-conformance/repeat-t_heads/annexb /
    aud/hrd/info/hash=0/no-temporal-layers/no-open-gop/min-keyint=1/keyint=24/bframes=4/b-adapt=2/b-pyramid/bframe-bias=0/rc-lookahead=25 /
    lookahead-slices=4/scenecut=40/no-intra-refresh/ctu=64/min-cu-size=8/no-rect/no-amp/max-tu-size=32/tu-inter-depth=1/tu-intra-depth=1/limit-tu=0 /
    rdoq-level=0/dynamic-rd=0.00/no-ssim-rd/signhide/no-tskip/nr-intra=0/nr-inter=0/no-constrained-intra/strong-intra-smoothing/max-merge=2/limit-
    refs=3/no-limit-modes/me=1/subme=2/merange=57/temporal-mvp/weightp/no-weightb/no-analyze-src-pics/deblock=0: 0/no-sao/no-sao-non-deblock/rd=3 /
    no-early-skip/rskip/no-fast-intra/no-tskip-fast/no-cu-lossless/no-b-intra/rdpenalty=0/psy-rd=2.00/psy-rdoq=0.00/no-rd-refine/analysis-reuse-mode=0
    / no-lossless/cbqpoffs=0/crqpoffs=0/rc=crf/crf=16.0/qcomp=0.60/qpstep=4/stats-write=0/stats-read=0/vbv-maxrate=160000/vbv-bufsize=160000/vbv-
    init=0.9/crf-max=0.0/crf-min=0.0/ipratio=1.40/pbratio=1.30/aq-mode=1/aq-strength=1.00/cutree/zone-count=0/no-strict-cbr/qg-size=32/no-rc-grain /
    qpmax=69/qpmin=0/no-const-vbv/sar=1/overscan=0/videoformat=5/range=0/colorprim=9/transfer=16/colormatrix=9/chromaloc=1/chromaloc-top=2 /
    chromaloc-bottom=2/display-window=0/master-display=G(13250, 34500)B(7500, 3000)R(34000, 16000)WP(15635, 16450)L(10000000, 50)/max-cll=1000, 701/min-luma=0/max-
    luma=1023/log2-max-poc-lsb=8/vui-timing-info/vui-hrd-info/slices=1/opt-qp-pps/opt-ref-list-length-pps/no-multi-pass-opt-rps/scenecut-bias=0.05/no-
    opt-cu-delta-qp/no-aq-motion/hdr/hdr-opt/no-dhdr10-opt/analysis-reuse-level=5/scale-factor=0/refine-intra=0/refine-inter=0/refine-mv=0/no-limit-sao
    / ctu-info=0
    Language : English
    Default : Yes
    Forced : No
    Color range : Limited
    Color primaries : BT.2020
    Transfer characteristics : SMPTE ST 2084
    Matrix coefficients : BT.2020 non-constant
    Mastering display color primaries : R: x=0.680000 y=0.320000, G: x=0.265000 y=0.690000, B: x=0.150000 y=0.060000, White point: x=0.312700 y=0.329000
    Mastering display luminance : min: 0.0050 cd/m2, max: 1000.0000 cd/m2
    Maximum Content Light Level : 1000 cd/m2
    Maximum Frame-Average Light Level : 701 cd/m2
    Audio #1
    ID : 2
    Format : DTS
    Format/Info : Digital Theater Systems
    Mode : 16
    Format settings, Endianness : Big
    Codec ID : A_DTS
    Duration : 1 h 29 min
    Bit rate mode : Constant
    Bit rate : 768 kb/s
    Channel(s) : 6 channels
    Channel positions : Front: L C R, Side: L R, LFE
    Sampling rate : 48.0 kHz
    Frame rate : 93.750 FPS (512 spf)
    Bit depth : 24 bits
    Compression mode : Lossy
    Stream size : 493 MiB (3%)
    Title : Rus DTS 768kbs
    Language : Russian
    Default : Yes
    Forced : No
    Audio #2
    ID : 3
    Format : AC-3
    Format/Info : Audio Coding 3
    Format settings, Endianness : Big
    Codec ID : A_AC3
    Duration : 1 h 29 min
    Bit rate mode : Constant
    Bit rate : 448 kb/s
    Channel(s) : 6 channels
    Channel positions : Front: L C R, Side: L R, LFE
    Sampling rate : 48.0 kHz
    Frame rate : 31.250 FPS (1536 spf)
    Bit depth : 16 bits
    Compression mode : Lossy
    Stream size : 287 MiB (2%)
    Title : Rus AC3 448kbs
    Language : Russian
    Service kind : Complete Main
    Default : No
    Forced : No
    Audio #3
    ID : 4
    Format : DTS
    Format/Info : Digital Theater Systems
    Format profile : X/MA/Core
    Mode : 16
    Format settings, Endianness : Big
    Codec ID : A_DTS
    Duration : 1 h 29 min
    Bit rate mode : Variable/Variable/Constant
    Bit rate : 5 524 kb/s/5 524 kb/s/1 509 kb/s
    Channel(s) : Object Based/8 channels/6 channels
    Channel positions : Object Based/Front: L C R, Side: L R, Back: L R, LFE/Front: L C R, Side: L R, LFE
    Sampling rate : /48.0 kHz/48.0 kHz
    Frame rate : 93.750 FPS (512 spf)
    Bit depth : /24 bits/24 bits
    Compression mode : /Lossless/Lossy
    Stream size : 3.46 GiB (24%)
    Title : Eng DTS-HD
    Language : English
    Default : No
    Forced : No
    Audio #4
    ID : 5
    Format : AC-3
    Format/Info : Audio Coding 3
    Format settings, Endianness : Big
    Codec ID : A_AC3
    Duration : 1 h 29 min
    Bit rate mode : Constant
    Bit rate : 640 kb/s
    Channel(s) : 6 channels
    Channel positions : Front: L C R, Side: L R, LFE
    Sampling rate : 48.0 kHz
    Frame rate : 31.250 FPS (1536 spf)
    Bit depth : 16 bits
    Compression mode : Lossy
    Stream size : 410 MiB (3%)
    Title : Eng AC3
    Language : English
    Service kind : Complete Main
    Default : No
    Forced : No
    Text #1
    ID : 6
    Format : UTF-8
    Codec ID : S_TEXT/UTF8
    Codec ID/Info : UTF-8 Plain Text
    Duration : 1 h 20 min
    Bit rate : 86 b/s
    Count of elements : 1083
    Stream size : 51.1 KiB (0%)
    Title : Rus Sub
    Language : Russian
    Default : No
    Forced : No
    Text #2
    ID : 7
    Format : UTF-8
    Codec ID : S_TEXT/UTF8
    Codec ID/Info : UTF-8 Plain Text
    Duration : 1 h 10 min
    Bit rate : 1 b/s
    Count of elements : 29
    Stream size : 962 Bytes (0%)
    Title : Rus Forced Sub
    Language : Russian
    Default : No
    Forced : Yes
    Text #3
    ID : 8
    Format : UTF-8
    Codec ID : S_TEXT/UTF8
    Codec ID/Info : UTF-8 Plain Text
    Duration : 1 h 21 min
    Bit rate : 50 b/s
    Count of elements : 1152
    Stream size : 30.2 KiB (0%)
    Title : English-SRT
    Language : English
    Default : No
    Forced : No
    Text #4
    ID : 9
    Format : PGS
    Codec ID : S_HDMV/PGS
    Codec ID/Info : Picture based subtitle format used on BDs/HD-DVDs
    Duration : 1 h 21 min
    Bit rate : 46.3 kb/s
    Count of elements : 3054
    Stream size : 27.0 MiB (0%)
    Title : English-PGS
    Language : English
    Default : No
    Forced : No
    Text #5
    ID : 10
    Format : PGS
    Codec ID : S_HDMV/PGS
    Codec ID/Info : Picture based subtitle format used on BDs/HD-DVDs
    Duration : 1 h 28 min
    Bit rate : 25.7 kb/s
    Count of elements : 2164
    Stream size : 16.3 MiB (0%)
    Title : French-PGS
    Language : French
    Default : No
    Forced : No
    Text #6
    ID : 11
    Format : PGS
    Codec ID : S_HDMV/PGS
    Codec ID/Info : Picture based subtitle format used on BDs/HD-DVDs
    Duration : 1 h 28 min
    Bit rate : 30.7 kb/s
    Count of elements : 1814
    Stream size : 19.5 MiB (0%)
    Title : German-PGS
    Language : German
    Default : No
    Forced : No
    Text #7
    ID : 12
    Format : PGS
    Codec ID : S_HDMV/PGS
    Codec ID/Info : Picture based subtitle format used on BDs/HD-DVDs
    Duration : 1 h 28 min
    Bit rate : 25.3 kb/s
    Count of elements : 1502
    Stream size : 16.1 MiB (0%)
    Title : Dutch-PGS
    Language : Dutch
    Default : No
    Forced : No
    Text #8
    ID : 13
    Format : PGS
    Codec ID : S_HDMV/PGS
    Codec ID/Info : Picture based subtitle format used on BDs/HD-DVDs
    Duration : 1 h 28 min
    Bit rate : 27.1 kb/s
    Count of elements : 2144
    Stream size : 17.2 MiB (0%)
    Title : Polish-PGS
    Language : Polish
    Default : No
    Forced : No
    Menu
    00: 00: 00.000 : en: Chapter 1
    00: 03: 06.102 : en: Chapter 2
    00: 07: 57.977 : en: Chapter 3
    00: 11: 12.838 : en: Chapter 4
    00: 16: 15.766 : en: Chapter 5
    00: 20: 07.497 : en: Chapter 6
    00: 24: 07.988 : en: Chapter 7
    00: 28: 57.068 : en: Chapter 8
    00: 32: 55.348 : en: Chapter 9
    00: 39: 01.839 : en: Chapter 10
    00: 42: 44.186 : en: Chapter 11
    00: 46: 47.179 : en: Chapter 12
    00: 50: 55.635 : en: Chapter 13
    00: 56: 12.077 : en: Chapter 14
    01: 00: 02.265 : en: Chapter 15
    01: 05: 41.228 : en: Chapter 16
    01: 10: 14.543 : en: Chapter 17
    01: 14: 33.760 : en: Chapter 18
    01: 19: 29.723 : en: Chapter 19
    01: 21: 56.995 : en: Chapter 20


    Онлайн видео Гадкий я 3


    Размер скачиваемого торрента: 14.17 GB (15219571830 Bytes)

    Гадкий я 3/Despicable Me 3 (2017) BDRip 2160p | 4K | HDR | Лицензия
    Рейтинг →
     (голосов: 1, оценка 3/5, голосовать можно 1 раз )

    Другие торренты по теме:

  • Гадкий Я: Мини-фильмы. Миньоны / Despicable Me Presents: Minion Madness / Despicable Me: Mini-Movies(2010) BDRip-AVC | P
  • Гадкий Я / Despicable Me (2010) BDRemux 1080p от Filmrus
  • Гадкий я 2 / Despicable Me 2 (2013) HD | D | Трейлер
  • OST - Гадкий Я 2 / Despicable Me 2 (2013) MP3
  • Гадкий я 2 / Despicable Me 2 (2013) TS | L1
  • Гадкий я 2 / Despicable Me 2 (2013) TS | L1
  • Гадкий я 2 / Despicable Me 2 (2013) TS | D
  • Гадкий я / Despicable Me (2010) НDRip от Scarabey | D


    • Комментарии (0):

      Информация

      Информация

        Посетители, находящиеся в группе Гости, не могут оставлять комментарии в данной новости.

        ↓ Меню



        ↓ Опрос

        А Вы добавили сайт в закладки?
        Да
        Не


        Top 10 за месяц (Мультфильмы)