.
Авторизация | Регистрация
Хочешь лучшие торренты? Добавь свой email!
Добавить
» » Ловчий смерти 2: Битва титанов / Deathstalker II (1987) HDRip-AVC от k.e.n | P, A скачать торрент бесплатно




    Ловчий смерти 2: Битва титанов / Deathstalker II (1987) HDRip-AVC от k.e.n | P, A скачать торрент бесплатно

    Опубликовал: Админ | Дата: 11-12-2017, 11:00 | Просмотров: 0



    Создали в: Аргентина, США
    Категория жанра: Фэнтези, Боевик, Приключения, Комедия
    Главный режиссер: Джим Уайнорски
    Актеры: Джон Терлески, Моник Габриэль, Джон Лазар, Тони Нэплс, Мария Сокас, Маркос Воински, Ди Буэр, Жак Арндт, Карина Дави, Джим Уайнорски...

    Описание фильма

    Великий воин вступает в единоборство с коварным королем Джераком и королевой Султаной, которые незаконно захватили королевство, по праву принадлежащее прекрасной принцессе Эви. Ловчего смерти и принцессу поджидает множество опасностей — жестокие пираты, кровожадные амазонки, смертоносные болота, обольстительные ведьмы, зомби и другие ужасные существа, населяющие королевство Джерака. И только последняя битва решит, какое оружие сильнее — меч или колдовство!

    Релиз подготовил: K.E.N
    Время просмотра: 01: 17: 27
    Качество фильма видео: HDRip-AVC
    Перевод текста: Профессиональный (двухголосый закадровый)Ракурс , авторский (одноголосый закадровый)Алексей Михалёв
    Информация о видео: AVC, 1024x576 (16: 9), 23.976 fps, 3 658 Kbps (0.259 bit/pixel)
    Информация о звуке #1: AC-3, 48.0 KHz, 2 ch, 192 Kbps, CBR (Russian)
    Информация о звуке #2: AC-3, 48.0 KHz, 2 ch, 192 Kbps, CBR (Russian)
    Субтитры: English
    Mediainfo:

    Формат : Matroska
    Версия формата : Version 2
    Размер файла : 2, 19 Гбайт
    Продолжительность : 1 ч. 17 м.
    Общий поток : 4043 Кбит/сек
    Дата кодирования : UTC 2016-10-12 11: 47: 37
    Программа кодирования : mkvmerge v5.3.0 (;I could have danced;) built on Feb 9 2012 10: 38: 07
    Библиотека кодирования : libebml v1.2.3 + libmatroska v1.3.0
    Attachment : Yes
    Видео
    Идентификатор : 1
    Формат : AVC
    Формат/Информация : Advanced Video Codec
    Профиль формата : High@L4.1
    Параметр CABAC формата : Да
    Параметр ReFrames формата : 11 кадров
    Идентификатор кодека : V_MPEG4/ISO/AVC
    Продолжительность : 1 ч. 17 м.
    Битрейт : 3658 Кбит/сек
    Ширина : 1024 пикселя
    Высота : 576 пикселей
    Соотношение сторон : 16: 9
    Режим частоты кадров : Постоянный
    Частота кадров : 23, 976 кадра/сек
    Цветовое пространство : YUV
    Субдискретизация насыщенности : 4: 2: 0
    Битовая глубина : 8 бит
    Тип развёртки : Прогрессивная
    Бит/(Пиксели*Кадры) : 0.259
    Размер потока : 1, 94 Гбайт (89%)
    Библиотека кодирования : x264 core 146 r2538 121396c
    Настройки программы : cabac=1/ref=11/deblock=1: -3: -3/analyse=0x3: 0x133/me=umh/subme=10/psy=1/psy_rd=1.00: 0.15/mixed_ref=1/me_range=32/chroma_me=1/trellis=2/8x8dct=1/cqm=0/deadzone=21, 11/fast_pskip=0/chroma_qp_offset=-3/threads=12/lookahead_threads=2/sliced_threads=0/nr=0/decimate=0/interlaced=0/bluray_compat=0/constrained_intra=0/bframes=8/b_pyramid=2/b_adapt=2/b_bias=0/direct=3/weightb=1/open_gop=0/weightp=2/keyint=240/keyint_min=23/scenecut=40/intra_refresh=0/rc_lookahead=40/rc=2pass/mbtree=0/bitrate=3658/ratetol=1.0/qcomp=0.60/qpmin=0/qpmax=69/qpstep=4/cplxblur=20.0/qblur=0.5/vbv_maxrate=50000/vbv_bufsize=62500/nal_hrd=none/filler=0/ip_ratio=1.40/pb_ratio=1.30/aq=1: 0.90
    Default : Да
    Forced : Нет
    Аудио #1
    Идентификатор : 2
    Формат : AC-3
    Формат/Информация : Audio Coding 3
    Расширение режима : CM (complete main)
    Параметр Endianness формата : Big
    Идентификатор кодека : A_AC3
    Продолжительность : 1 ч. 17 м.
    Вид битрейта : Постоянный
    Битрейт : 192 Кбит/сек
    Каналы : 2 канала
    Расположение каналов : Front: L R
    Частота : 48, 0 КГц
    Битовая глубина : 16 бит
    Метод сжатия : С потерями
    Размер потока : 106 Мбайт (5%)
    Заголовок : Двухголосый, Ракурс
    Язык : Russian
    Default : Да
    Forced : Нет
    Аудио #2
    Идентификатор : 3
    Формат : AC-3
    Формат/Информация : Audio Coding 3
    Расширение режима : CM (complete main)
    Параметр Endianness формата : Big
    Идентификатор кодека : A_AC3
    Продолжительность : 1 ч. 17 м.
    Вид битрейта : Постоянный
    Битрейт : 192 Кбит/сек
    Каналы : 2 канала
    Расположение каналов : Front: L R
    Частота : 48, 0 КГц
    Битовая глубина : 16 бит
    Метод сжатия : С потерями
    Размер потока : 106 Мбайт (5%)
    Заголовок : Одноголосый, Алексей Михалёв
    Язык : Russian
    Default : Нет
    Forced : Нет
    Текст
    Идентификатор : 4
    Формат : UTF-8
    Идентификатор кодека : S_TEXT/UTF8
    Идентификатор кодека/Информация : UTF-8 Plain Text
    Язык : English
    Default : Нет
    Forced : Нет
    Меню
    00: 00: 00.000 : en: Chapter 01
    00: 05: 57.565 : en: Chapter 02
    00: 11: 44.704 : en: Chapter 03
    00: 18: 07.461 : en: Chapter 04
    00: 25: 19.935 : en: Chapter 05
    00: 32: 42.543 : en: Chapter 06
    00: 38: 15.334 : en: Chapter 07
    00: 46: 22.488 : en: Chapter 08
    00: 52: 03.787 : en: Chapter 09
    00: 57: 37.829 : en: Chapter 10
    01: 03: 36.896 : en: Chapter 11
    01: 08: 50.251 : en: Chapter 12
    01: 17: 24.681 : en: Chapter 13

    Скриншоты:


    Онлайн видео Ловчий смерти 2: Битва титанов


    Размер скачиваемого торрента: 2.19 GB (2348521810 Bytes)

    Ловчий смерти 2: Битва титанов/Deathstalker II (1987) HDRip-AVC от k.e.n | P, A
    Рейтинг →
     (голосов: 1, оценка 5/5, голосовать можно 1 раз )

    Другие торренты по теме:

  • Ловчий смерти / Deathstalker (1983) HDRip от AleksSin | P2, A
  • Ловчий смерти 2: Битва титанов / Deathstalker II (1987) BDRip 1080p | P, A
  • Ловчий смерти / Death Hunter (2010) DVDRip | Лицензия


    • Комментарии (0):

      Информация

      Информация

        Посетители, находящиеся в группе Гости, не могут оставлять комментарии в данной новости.

        ↓ Меню



        ↓ Опрос

        А Вы добавили сайт в закладки?
        Да
        Не


        Top 10 за месяц (Фильмы)