.
Авторизация | Регистрация
Хочешь лучшие торренты? Добавь свой email!
Добавить
» » Последние часы / These Final Hours (2013) BDRemux 1080p | A, P, L1 скачать торрент бесплатно


    Последние часы / These Final Hours (2013) BDRemux 1080p | A, P, L1 скачать торрент бесплатно

    Опубликовал: Админ | Дата: 16-10-2017, 11:00 | .torrent скачали: 0


    Последние часы / These Final Hours (2013) BDRemux 1080p | A, P, L1
    Детально о кино
    Русское название: Последние часы
    Русское название в мировом прокате: These Final Hours
    Создали в: 2013
    Категория жанра: триллер, драма, фантастика
    Главный режиссер: Зак Хилдитч

    Актеры
    Нэйтан Филлипс, Энгаури Райс, Джессика Де Гау, Кэтерин Бек, Сара Снук, Дэниэл Хеншэлл, Линетт Каррен, Дэвид Филд, Лорен Клири, Мэтт Ловкис

    Сюжет фильма

    Это последний день на земле. Через двенадцать часов глобальный катаклизм положит всему конец. Джеймс держит путь через город, погрузившийся в хаос, чтобы попасть на последнюю вечеринку. По пути он спасает жизнь маленькой девочки по имени Роуз, которая отчаянно ищет своего отца.

    Снималось в: Австралия
    Киностудия: 8th In Line, XYZ Films
    Время просмотра: 01: 26: 38
    Перевод текста: авторский М. Чадов, профессиональный многоголосный, закадровый Чемоданов Продакшн, любительский одноголосный, закадровый Р. Закиров - RAIM
    Файл
    Кодек для видео: H.264
    Качество фильма: BDRemux 1080p
    Информация о видео: MPEG-4/AVC, 1920x1080 (16: 9), 23.976 fps ~ 28 Mbps
    Информация о звуке:
    Аудио #1: DTS, 48 KHz, 6 ch ~ 1510 Kb/s (М. Чадов)
    Аудио #2: AC3, 48 KHz, 2 ch ~ 192 Kb/s (Чемоданов Продакшн)
    Аудио #3: AC3, 48 KHz, 6 ch ~ 448 Kb/s (RAIM)
    Аудио #4: DTS, 48 KHz, 6 ch ~ 1510 Kb/s (английский)
    Субтитры: русские, английские
    MI:

    Общее
    Уникальный идентификатор : 172491286757513481005107287621619577711 (0x81C49D09D40BF3BAAC0E5EBAB802736F)
    Полное имя : Q: TorFПоследние часы These Final Hours ;13 BDRemux GER.mkv
    Формат : Matroska
    Версия формата : Version 4/Version 2
    Размер файла : 19, 8 Гбайт
    Продолжительность : 1 ч. 26 м.
    Режим общего битрейта : Переменный
    Общий поток : 32, 7 Мбит/сек
    Название фильма : Последние часы/These Final Hours (Зак Хилдитч/Zak Hilditch) 2013
    Дата кодирования : UTC 2017-03-26 15: 03: 05
    Программа кодирования : mkvmerge v8.3.0 (;Over the Horizon;) 64bit
    Библиотека кодирования : libebml v1.3.1 + libmatroska v1.4.2
    Обложка : Cover
    Видео
    Идентификатор : 1
    Формат : AVC
    Формат/Информация : Advanced Video Codec
    Профиль формата : High@L4.1
    Параметр CABAC формата : Да
    Параметр ReFrames формата : 4 кадра
    Параметр GOP формата : M=3, N=24
    Идентификатор кодека : V_MPEG4/ISO/AVC
    Продолжительность : 1 ч. 26 м.
    Вид битрейта : Переменный
    Битрейт : 28, 0 Мбит/сек
    Максимальный битрейт : 36, 0 Мбит/сек
    Ширина : 1920 пикселей
    Высота : 1080 пикселей
    Соотношение сторон : 16: 9
    Частота кадров : 23, 976 кадра/сек
    Стандарт вещания : NTSC
    Цветовое пространство : YUV
    Субдискретизация насыщенности : 4: 2: 0
    Битовая глубина : 8 бит
    Тип развёртки : Прогрессивная
    Бит/(Пиксели*Кадры) : 0.564
    Размер потока : 17, 0 Гбайт (86%)
    Заголовок : BDRemux by Just_TeMa 1080p GER
    Язык : English
    Default : Да
    Forced : Нет
    Основные цвета : BT.709-5, BT.1361, IEC 61966-2-4, SMPTE RP177
    Характеристики трансфера : BT.709-5, BT.1361
    Коэффициенты матрицы : BT.709-5, BT.1361, IEC 61966-2-4 709, SMPTE RP177
    Аудио #1
    Идентификатор : 2
    Формат : DTS
    Формат/Информация : Digital Theater Systems
    Профиль формата : MA/Core
    Идентификатор кодека : A_DTS
    Продолжительность : 1 ч. 26 м.
    Вид битрейта : Переменный
    Битрейт : 1798 Кбит/сек/1510 Кбит/сек
    Каналы : 6 каналов
    Расположение каналов : Front: L C R, Side: L R, LFE
    Частота : 48, 0 КГц
    Битовая глубина : 24 бит
    Метод сжатия : Без потерь/Lossy
    Заголовок : VO (М. Чадов)
    Язык : Russian
    Default : Да
    Forced : Нет
    Аудио #2
    Идентификатор : 3
    Формат : AC-3
    Формат/Информация : Audio Coding 3
    Расширение режима : CM (complete main)
    Идентификатор кодека : A_AC3
    Продолжительность : 1 ч. 26 м.
    Вид битрейта : Постоянный
    Битрейт : 192 Кбит/сек
    Каналы : 2 канала
    Расположение каналов : Front: L R
    Частота : 48, 0 КГц
    Битовая глубина : 16 бит
    Метод сжатия : С потерями
    Размер потока : 119 Мбайт (1%)
    Заголовок : MVO (Чемоданов Продакшн)
    Язык : Russian
    Default : Нет
    Forced : Нет
    Аудио #3
    Идентификатор : 4
    Формат : AC-3
    Формат/Информация : Audio Coding 3
    Расширение режима : CM (complete main)
    Идентификатор кодека : A_AC3
    Продолжительность : 1 ч. 26 м.
    Вид битрейта : Постоянный
    Битрейт : 448 Кбит/сек
    Каналы : 6 каналов
    Расположение каналов : Front: L C R, Side: L R, LFE
    Частота : 48, 0 КГц
    Битовая глубина : 16 бит
    Метод сжатия : С потерями
    Размер потока : 278 Мбайт (1%)
    Заголовок : VO (Р. Закиров aka RAIM
    Язык : Russian
    Default : Нет
    Forced : Нет
    Аудио #4
    Идентификатор : 5
    Формат : DTS
    Формат/Информация : Digital Theater Systems
    Профиль формата : MA/Core
    Идентификатор кодека : A_DTS
    Продолжительность : 1 ч. 26 м.
    Вид битрейта : Переменный
    Битрейт : 1561 Кбит/сек/1510 Кбит/сек
    Каналы : 6 каналов
    Расположение каналов : Front: L C R, Side: L R, LFE
    Частота : 48, 0 КГц
    Битовая глубина : 24 бит
    Метод сжатия : Без потерь/Lossy
    Заголовок : Original
    Язык : English
    Default : Нет
    Forced : Нет
    Текст #1
    Идентификатор : 6
    Формат : UTF-8
    Идентификатор кодека : S_TEXT/UTF8
    Идентификатор кодека/Информация : UTF-8 Plain Text
    Заголовок : Full (SDH) Janetta
    Язык : Russian
    Default : Нет
    Forced : Нет
    Текст #2
    Идентификатор : 7
    Формат : UTF-8
    Идентификатор кодека : S_TEXT/UTF8
    Идентификатор кодека/Информация : UTF-8 Plain Text
    Заголовок : Full
    Язык : English
    Default : Нет
    Forced : Нет
    Меню
    00: 00: 00.000 : en: Chapter 01
    00: 10: 25.833 : en: Chapter 02
    00: 14: 43.215 : en: Chapter 03
    00: 22: 08.535 : en: Chapter 04
    00: 32: 01.502 : en: Chapter 05
    00: 40: 15.204 : en: Chapter 06
    00: 51: 22.621 : en: Chapter 07
    01: 00: 31.419 : en: Chapter 08
    01: 07: 29.045 : en: Chapter 09
    01: 17: 38.862 : en: Chapter 10
    01: 19: 51.411 : en: Chapter 11
    01: 20: 56.268 : en: Chapter 12

    Скриншоты

    Релиз подготовил: Just_TeMa

    Онлайн видео Последние часы


    Размер скачиваемого торрента: 19.78 GB (21243185395 Bytes)

    Последние часы/These Final Hours (2013) BDRemux 1080p | A, P, L1
    Рейтинг →
     (голосов: 1, оценка 5/5, голосовать можно 1 раз )

    Другие торренты по теме:

  • Последние часы / These Final Hours
  • Последние часы / These Final Hours (2013) BDRip 720p | L1
  • Последние часы / These Final Hours (2013) BDRip 720p от Leonardo and Scarabey | P
  • Последние часы / These Final Hours (2013) BDRip-AVC | P


    • Комментарии (0):

      Информация

      Информация

        Посетители, находящиеся в группе Гости, не могут оставлять комментарии в данной новости.

        ↓ Меню




        ↓ Опрос

        А Вы добавили сайт в закладки?
        Да
        Не


        Top 10 за месяц (Фильмы)