.
Авторизация | Регистрация
Хочешь лучшие торренты? Добавь свой email!
Добавить
» » Газонокосильщик / The Lawnmower Man (1992) BDRip 720p от k.e.n MegaPeer | P | Directors Cut скачать торрент бесплатно




    Газонокосильщик / The Lawnmower Man (1992) BDRip 720p от k.e.n MegaPeer | P | Directors Cut скачать торрент бесплатно

    Опубликовал: Админ | Дата: 26-06-2017, 11:00 | Просмотров: 0



    Детально о кино
    Русское название: Газонокосильщик
    Русское название в мировом прокате: The Lawnmower Man
    Создали в: 1992
    Категория жанра: Ужасы, фантастика
    Главный режиссер: Бретт Леонард/Brett Leonard

    Актеры
    Джефф Фэйи/Jeff Fahey, Пирс Броснан/Pierce Brosnan, Дженни Райт/Jenny Wright, Марк Бринглсон/Mark Bringleson, Джеффри Льюис/Geoffrey Lewis, Джереми Слейт/Jeremy Slate, Дин Норрис/Dean Norris, Коллин Коффи/Colleen Coffey, Джим Лэндис/Jim Landis, Трой Эванс/Troy Evans, Розали Майокс/Rosalee Mayeux

    Сюжет фильма

    Молодой талантливый ученый Трэйс ставит над умственно неполноценным косильщиком лужаек Джоубом эксперименты с использованием высоких компьютерных технологий в комбинации с наркотиками. Трэйс внедряет Джоуба в виртуальную реальность — трехмерный компьютерный мир. Ученому удается развить умственные способности вчерашнего недоумка до супергения. Но в ход эксперимента тайно вмешиваются военные, и испытуемый превращается в сверхинтеллектуального монстра-психопата в человеческом облике, у которого возникают претензии на мировое господство.

    Снималось в: Великобритания, США, Япония
    Киностудия: Allied Vision, Fuji Eight Company Ltd., Lane Pringle Productions
    Время просмотра: 2: 20: 53
    Перевод текста: : Профессиональный (многоголосый закадровый) |R5 от Lizard|
    Субтитры: Russian (R5), English (Full)
    Файл
    Контейнер: MKV
    Информация о видео: AVC, 1280x692 (1.85), 23.976 fps, 6 408 Kbps (0.302 bit/pixel)
    Информация о звуке #1: AC-3, 48.0 KHz, 6 ch, 640 Kbps, CBR (Russian) - многоголосый закадровый |R5 от Lizard|
    Информация о звуке #2: AC-3, 48.0 KHz, 6 ch, 640 Kbps, CBR (English) - оригинальная звуковая дорожка
    Информация о звуке #3: AC-3, 48.0 KHz, 2 ch, 192 Kbps, CBR (English) - комментарии
    Релиз:
    x264 log:
    x264 info: frame I: 1383 Avg QP: 17.20 size: 150282 PSNR Mean Y: 45.40 U: 48.34 V: 50.17 Avg: 46.29 Global: 45.77
    x264 info: frame P: 42469 Avg QP: 20.34 size: 59131 PSNR Mean Y: 42.99 U: 46.94 V: 49.02 Avg: 44.04 Global: 43.46
    x264 info: frame B: 158822 Avg QP: 21.92 size: 25513 PSNR Mean Y: 41.87 U: 46.40 V: 49.02 Avg: 43.01 Global: 42.42
    MediaInfo:
    Формат : Matroska
    Версия формата : Version 2
    Размер файла : 7, 76 Гбайт
    Продолжительность : 2 ч. 20 м.
    Общий поток : 7883 Кбит/сек
    Дата кодирования : UTC 2017-06-25 04: 27: 01
    Программа кодирования : mkvmerge v5.3.0 (;I could have danced;) built on Feb 9 2012 10: 38: 07
    Библиотека кодирования : libebml v1.2.3 + libmatroska v1.3.0
    Attachments : poster (18).jpg
    Видео
    Идентификатор : 1
    Формат : AVC
    Формат/Информация : Advanced Video Codec
    Профиль формата : High@L4.1
    Параметр CABAC формата : Да
    Параметр ReFrames формата : 9 кадров
    Идентификатор кодека : V_MPEG4/ISO/AVC
    Продолжительность : 2 ч. 20 м.
    Битрейт : 6408 Кбит/сек
    Ширина : 1280 пикселей
    Высота : 692 пикселя
    Соотношение сторон : 1, 85: 1
    Режим частоты кадров : Постоянный
    Частота кадров : 23, 976 (24000/1001) кадра/сек
    Цветовое пространство : YUV
    Субдискретизация насыщенности : 4: 2: 0
    Битовая глубина : 8 бит
    Тип развёртки : Прогрессивная
    Бит/(Пиксели*Кадры) : 0.302
    Размер потока : 6, 15 Гбайт (79%)
    Библиотека кодирования : x264 core 146 r2538 121396c
    Настройки программы : cabac=1/ref=9/deblock=1: -3: -3/analyse=0x3: 0x133/me=umh/subme=11/psy=1/psy_rd=1.00: 0.00/mixed_ref=1/me_range=32/chroma_me=1/trellis=2/8x8dct=1/cqm=0/deadzone=21, 11/fast_pskip=0/chroma_qp_offset=-2/threads=12/lookahead_threads=3/sliced_threads=0/nr=0/decimate=0/interlaced=0/bluray_compat=0/constrained_intra=0/bframes=11/b_pyramid=2/b_adapt=2/b_bias=0/direct=3/weightb=1/open_gop=0/weightp=2/keyint=240/keyint_min=23/scenecut=40/intra_refresh=0/rc=2pass/mbtree=0/bitrate=6408/ratetol=1.0/qcomp=0.60/qpmin=0/qpmax=69/qpstep=4/cplxblur=20.0/qblur=0.5/ip_ratio=1.40/pb_ratio=1.30/aq=1: 0.90
    Язык : English
    Default : Да
    Forced : Нет
    Аудио #1
    Идентификатор : 2
    Формат : AC-3
    Формат/Информация : Audio Coding 3
    Расширение режима : CM (complete main)
    Параметр Endianness формата : Big
    Идентификатор кодека : A_AC3
    Продолжительность : 2 ч. 20 м.
    Вид битрейта : Постоянный
    Битрейт : 640 Кбит/сек
    Каналы : 6 каналов
    Расположение каналов : Front: L C R, Side: L R, LFE
    Частота : 48, 0 КГц
    Частота кадров : 31, 250 кадров/сек (1536 spf)
    Битовая глубина : 16 бит
    Метод сжатия : С потерями
    Размер потока : 645 Мбайт (8%)
    Заголовок : Многоголосый закадровый |R5 от Lizard|
    Язык : Russian
    Default : Да
    Forced : Нет
    Аудио #2
    Идентификатор : 3
    Формат : AC-3
    Формат/Информация : Audio Coding 3
    Расширение режима : CM (complete main)
    Параметр Endianness формата : Big
    Идентификатор кодека : A_AC3
    Продолжительность : 2 ч. 20 м.
    Вид битрейта : Постоянный
    Битрейт : 640 Кбит/сек
    Каналы : 6 каналов
    Расположение каналов : Front: L C R, Side: L R, LFE
    Частота : 48, 0 КГц
    Частота кадров : 31, 250 кадров/сек (1536 spf)
    Битовая глубина : 16 бит
    Метод сжатия : С потерями
    Размер потока : 645 Мбайт (8%)
    Язык : English
    Default : Нет
    Forced : Нет
    Аудио #3
    Идентификатор : 4
    Формат : AC-3
    Формат/Информация : Audio Coding 3
    Расширение режима : CM (complete main)
    Параметр Endianness формата : Big
    Идентификатор кодека : A_AC3
    Продолжительность : 2 ч. 20 м.
    Вид битрейта : Постоянный
    Битрейт : 192 Кбит/сек
    Каналы : 2 канала
    Расположение каналов : Front: L R
    Частота : 48, 0 КГц
    Частота кадров : 31, 250 кадров/сек (1536 spf)
    Битовая глубина : 16 бит
    Метод сжатия : С потерями
    Размер потока : 193 Мбайт (2%)
    Заголовок : Комментарии
    Язык : English
    Default : Нет
    Forced : Нет
    Текст #1
    Идентификатор : 5
    Формат : UTF-8
    Идентификатор кодека : S_TEXT/UTF8
    Идентификатор кодека/Информация : UTF-8 Plain Text
    Язык : Russian
    Default : Нет
    Forced : Нет
    Текст #2
    Идентификатор : 6
    Формат : UTF-8
    Идентификатор кодека : S_TEXT/UTF8
    Идентификатор кодека/Информация : UTF-8 Plain Text
    Язык : English
    Default : Нет
    Forced : Нет
    Меню
    00: 00: 00.000 : : Chapter 01
    00: 11: 54.879 : : Chapter 02
    00: 23: 42.628 : : Chapter 03
    00: 36: 34.650 : : Chapter 04
    00: 48: 18.393 : : Chapter 05
    00: 58: 57.824 : : Chapter 06
    01: 12: 10.783 : : Chapter 07
    01: 24: 11.296 : : Chapter 08
    01: 36: 12.725 : : Chapter 09
    01: 46: 46.358 : : Chapter 10
    01: 57: 09.313 : : Chapter 11
    02: 07: 19.506 : : Chapter 12

    Скриншоты:


    Онлайн видео Газонокосильщик


    Размер скачиваемого торрента: 7.76 GB (8329412815 Bytes)

    Газонокосильщик/The Lawnmower Man (1992) BDRip 720p от k.e.n MegaPeer | P | Directors Cut
    Рейтинг →
     (голосов: 1, оценка 3/5, голосовать можно 1 раз )

    Другие торренты по теме:

  • Газонокосильщик / The Lawnmower Man (1992) BDRip 1080p | Р, А | Театральная версия
  • Газонокосильщик / The Lawnmower Man (1992) HDRip от Scarabey | P | Театральная версия
  • Газонокосильщик / The Lawnmower Man (1992) HDRip от Portablius | P | Театральная версия
  • Газонокосильщик 2: За пределами киберпространства / Lawnmower Man 2: Beyond Cyberspace (1996) WEB-DL 720p | Р, Р2, А
  • Газонокосильщик / The Lawnmower Man (1992) BDRip 1080p | P | Режиссерская версия
  • Газонокосильщик / The Lawnmower Man (1992) BDRip | P | Режиссерская версия
  • Газонокосильщик / The Lawnmower Man (1992) BDRip-AVC | P | Режиссерская версия
  • Газонокосильщик / The Lawnmower Man (1992) DVD9 | P | Режиссерская версия


    • Комментарии (0):

      Информация

      Информация

        Посетители, находящиеся в группе Гости, не могут оставлять комментарии в данной новости.

        ↓ Меню



        ↓ Опрос

        А Вы добавили сайт в закладки?
        Да
        Не


        Top 10 за месяц (Фильмы)