.
Авторизация | Регистрация
Хочешь лучшие торренты? Добавь свой email!
Добавить
» » Великолепный век / Muhtesem Yzyil (2011-2012) HDTVRip | L1 скачать торрент бесплатно




    Великолепный век / Muhtesem Yzyil (2011-2012) HDTVRip | L1 скачать торрент бесплатно

    Опубликовал: Админ | Дата: 27-02-2015, 11:09 | Просмотров: 394

    Великолепный век / Muhtesem Yzyil (2011-2012) HDTVRip | L1

    Информация о фильме
    Название: Великолепный век
    Оригинальное название: Muhtesem Y?zyil
    Год выхода: 2011-2012
    Жанр: драма, мелодрама, военный, биография, история
    Режиссер: Дурул Тайлан / Durul Taylan, Ягмур Тайлан / Yagmur Taylan
    В ролях: Небахат Чехре /Nebahat ?ehre/, Окан Ялабик /Okan Yalabik/, Сельма Эргеч /Selma Erge?/, Халит Эргенч /Halit Ergen?/, Филиз Ахмет /Filiz Ahmet/

    О фильме:
    Сюжет основан на реальных событиях, произошедших во времена правления султана Сулеймана I, и расказывает о периоде жизни девушки Роксоланы, взятой в плен турками и названной Хюррем. Позже она стала первой официальной женой Сулеймана, но для этого ей пришлось пройти сложный путь…



    Страна: Турция
    Продолжительность: ~ 100 минут серия
    Перевод: Любительский (одноголосый, закадровый) turok1990
    Переводчик с турецкого языка: Елена -ELVAN- Белова.

    Файл
    Кодек: DivX / MP3
    Качество: HDTVRip
    Видео: DivX, 720x408 (1.76:1), 25.000 fps, ~1200 kbps, ~0.16 bit/pixel
    Звук: MP3, 48 kHz, 2 ch, ~256 kbps

    Семпл

    Скриншоты
    MediaInfo
    General
    Complete name : /media/vek_sezon_3_turok1990/64.Muhtesem_Yuzyil_turok1990.avi
    Format : AVI
    Format/Info : Audio Video Interleave
    File size : 1.12 GiB
    Duration : 1h 49mn
    Overall bit rate : 1 464 Kbps
    Writing library : TMPGEnc 4.0 XPress Version. 4.6.3.267

    Video
    ID : 0
    Format : MPEG-4 Visual
    Format settings, BVOP : Yes
    Format settings, QPel : No
    Format settings, GMC : No warppoints
    Format settings, Matrix : Default (H.263)
    Codec ID : DX50
    Codec ID/Hint : DivX 5
    Duration : 1h 49mn
    Bit rate : 1 196 Kbps
    Width : 720 pixels
    Height : 408 pixels
    Display aspect ratio : 16:9
    Frame rate : 25.000 fps
    Color space : YUV
    Chroma subsampling : 4:2:0
    Bit depth : 8 bits
    Scan type : Progressive
    Compression mode : Lossy
    Bits/(Pixel*Frame) : 0.163
    Stream size : 936 MiB (82%)
    Writing library : DivX 6.8.5 (UTC 2009-08-20)

    Audio
    ID : 1
    Format : MPEG Audio
    Format version : Version 1
    Format profile : Layer 3
    Codec ID : 55
    Codec ID/Hint : MP3
    Duration : 1h 49mn
    Bit rate mode : Constant
    Bit rate : 256 Kbps
    Channel(s) : 2 channels
    Sampling rate : 48.0 KHz
    Compression mode : Lossy
    Stream size : 201 MiB (17%)
    Alignment : Aligned on interleaves
    Interleave, duration : 40 ms (1.00 video frame)
    Interleave, preload duration : 408 ms

    ***Серии выходят в Турции только по средам один раз в неделю время на перевод.
    Размер: 15.65 GB (16808093388 Bytes)
    Рейтинг →
     (голосов: 1, оценка 4/5, голосовать можно 1 раз )

    Другие торренты по теме:

  • Великолепный век. Создание легенды / Muhtesem Yuzyl. Yapim Belgeseli (2013) WEB-DLRip
  • OST - Великолепный век / Muhteem Yzyl / Muhtesem Yuzyil - Vol 1 (2013) MP3
  • Великолепный век / Muhtesem Yzyil (2012-2013) WEBDLRip | D
  • Великолепный век / Muhtesem Yzyil (2013) WEB-DLRip | L1 скачать через торрент бесплатно
  • Великолепный век / Muhtesem Yzyil (2013) SATRip | L1
  • Великолепный век / Muhtesem Yuzyil (2013) TVRip | L1 скачать через торрент бесплатно
  • Великолепный век / Muhtesem Yuzyil (2011-2013) WEB-DLRip | ТК Домашний скачать через торрент бесплатно
  • Великолепный век / Muhtesem Yuzyil (2013) WEB-DLRip скачать через торрент бесплатно


    • Комментарии (0):

      Информация

      Информация

        Посетители, находящиеся в группе Гости, не могут оставлять комментарии в данной новости.

        ↓ Меню



        ↓ Опрос

        А Вы добавили сайт в закладки?
        Да
        Не


        Top 10 за месяц (Фильмы)