.
Авторизация | Регистрация
Хочешь лучшие торренты? Добавь свой email!
Добавить
» » Курс на Токио / Пункт назначения - Токио / Destination Tokyo (1943) DVDRip от SergV | A скачать торрент бесплатно




    Курс на Токио / Пункт назначения - Токио / Destination Tokyo (1943) DVDRip от SergV | A скачать торрент бесплатно

    Опубликовал: Админ | Дата: 27-02-2015, 11:09 | Просмотров: 392


    Курс на Токио / Пункт назначения - Токио / Destination Tokyo

    Год выхода: 1943
    Жанр: Приключения, военный, история
    Режиссер: Дэлмер Дэйвс / Delmer Daves
    В ролях: Кэри Грант, Джон Гарфилд, Алан Хейл, Джон Риджли, Дэйн Кларк, Уорнер Андерсон, Уильям Принц, Роберт Хаттон, Том Талли, Фэй Эмерсон

    О фильме: Фильм снят во время Второй мировой войны, и представляет собой хронику рейса американской подлодки U.S.S. Copperfin, направляющейся по секретному заданию к берегам Японии. Миссия субмарины состоит в том, чтобы войти в неохраняемый залив и выгрузить на берегу разведотряд. Солдаты должны собрать информацию перед запланированной бомбежкой Токио. После получения сведений перед ними встает непосильная задача отхода назад, но их присутствие уже обнаружено японцами.




    Доп. информация:
    * Удалена вся реклама до и после фильма.
    * Исходный размер кадра на DVD9 640*480. Однако рип с таким соотношением сторон (есть в сети) получается вытянутым по вертикали, поэтому пришлось сплюснуть кадр до 640*472 для получения нормального изображения (см. под спойлером).
    Острожно - спойлер!

    Выпущено: США / Warner Bros. Pictures
    Продолжительность: 02:14:54
    Перевод:
    Авторский одноголосый (закадровый) - Юрий Живов
    Оригинальная (English) дорожка

    Кодек: XviD - Совместимо с бытовыми DVD-плеерами
    Качество: DVDRip (Исходник DVD9)
    Видео: 640x472 (1.36:1), 23.976 fps, XviD build 73 ~1905 kbps avg, 0.26 bit/pixel
    Аудио#1:Rus: 48 kHz, AC3 Dolby Digital, 2/0 (L,R) ch, ~192 kbps
    Аудио#2:Eng: 48 kHz, AC3 Dolby Digital, 1/0 (C) ch, ~192 kbps

    MediaInfo

    Общее
    Полное имя: Destination.Tokyo.1943.XviD.DVDRip.AVO.Eng_SergV.avi
    Формат : AVI
    Формат/Информация : Audio Video Interleave
    Профиль формата : OpenDML
    Размер файла : 2,17 Гбайт
    Продолжительность : 2 ч. 14 м.
    Общий поток : 2306 Кбит/сек
    Название фильма : Destination.Tokyo.1943.XviD.DVDRip.AVO.Eng_SergV
    Программа кодирования : VirtualDubMod 1.5.10.3 | www.virtualdub-fr.org || (build 2550/release)
    Примечание : Рип от SergV

    Видео
    Идентификатор : 0
    Формат : MPEG-4 Visual
    Профиль формата : Advanced Simple@L5
    Параметр BVOP формата : 4
    Параметр QPel формата : Нет
    Параметр GMC формата : Без точки перехода
    Параметр матрицы формата : Default (MPEG)
    Идентификатор кодека : XVID
    Идентификатор кодека/Подсказка : XviD
    Продолжительность : 2 ч. 14 м.
    Битрейт : 1904 Кбит/сек
    Ширина : 640 пикселей
    Высота : 472 пикселя
    Соотношение сторон : 4:3
    Частота кадров : 23,976 кадра/сек
    Цветовое пространство : YUV
    Субдискретизация насыщенности : 4:2:0
    Битовая глубина : 8 бит
    Тип развёртки : Прогрессивная
    Метод сжатия : С потерями
    Бит/(Пиксели*Кадры) : 0.263
    Размер потока : 1,79 Гбайт (83%)
    Библиотека кодирования : XviD 73

    Аудио #1
    Идентификатор : 1
    Формат : AC-3
    Формат/Информация : Audio Coding 3
    Расширение режима : CM (complete main)
    Параметр Endianness формата : Big
    Идентификатор кодека : 2000
    Продолжительность : 2 ч. 14 м.
    Вид битрейта : Постоянный
    Битрейт : 192 Кбит/сек
    Каналы : 2 канала
    Расположение каналов : Front: L R
    Частота : 48,0 КГц
    Битовая глубина : 16 бит
    Метод сжатия : С потерями
    Размер потока : 185 Мбайт (8%)
    Выравнивание : Разделение по промежуткам
    Продолжительность промежутка : 42 мс. (1,00 видеокадр)
    Время предзагрузки промежутка : 500 мс.

    Аудио #2
    Идентификатор : 2
    Формат : AC-3
    Формат/Информация : Audio Coding 3
    Расширение режима : CM (complete main)
    Параметр Endianness формата : Big
    Идентификатор кодека : 2000
    Продолжительность : 2 ч. 14 м.
    Вид битрейта : Постоянный
    Битрейт : 192 Кбит/сек
    Каналы : 1 канал
    Расположение каналов : Front: C
    Частота : 48,0 КГц
    Битовая глубина : 16 бит
    Метод сжатия : С потерями
    Задержка видео : 7 мс.
    Размер потока : 185 Мбайт (8%)
    Выравнивание : Разделение по промежуткам
    Продолжительность промежутка : 42 мс. (1,00 видеокадр)
    Время предзагрузки промежутка : 500 мс.

    Скриншоты:


    Релиз от:
    Залил: sergv727
    Размер: 2.17 GB (2333216768 Bytes)
    Рейтинг →
     (голосов: 1, оценка 5/5, голосовать можно 1 раз )

    Другие торренты по теме:

  • Столкновение интересов / Курс на столкновение / Collision Course (2012) HDRip
  • Право голоса. Курс на консерватизм (2014) WEBRip
  • Столкновение интересов / Курс на столкновение / Collision Course (2012) BDRip 1080p от BT-Club скачать через торрент бесплатно
  • Курс 20483: Программирование на C# (2013) WEBRip


    • Комментарии (0):

      Информация

      Информация

        Посетители, находящиеся в группе Гости, не могут оставлять комментарии в данной новости.

        ↓ Меню



        ↓ Опрос

        А Вы добавили сайт в закладки?
        Да
        Не


        Top 10 за месяц (Фильмы)