.
Авторизация | Регистрация
Хочешь лучшие торренты? Добавь свой email!
Добавить
» » Во имя короля: История осады подземелья / In the Name of the King: A Dungeon Siege Tale (2007) DVD9 от NovaLan скачать торрент бесплатно




    Во имя короля: История осады подземелья / In the Name of the King: A Dungeon Siege Tale (2007) DVD9 от NovaLan скачать торрент бесплатно

    Опубликовал: Админ | Дата: 27-02-2015, 11:09 | Просмотров: 330



    Название: Во имя короля: История осады подземелья
    Оригинальное название: In the Name of the King: A Dungeon Siege Tale
    Год выхода: 2007
    Жанр: Фэнтези, боевик, драма, приключения
    Режиссер: Уве Болл
    В ролях: Джейсон Стэйтем, Лили Собески, Джон Рис-Дэвис, Рон Перлман, Мэттью Лиллард, Рэй Лиотта, Брайан Дж. Уайт, Клэр Форлани, Кристанна Локен, Берт Рейнолдс, Майк Допуд, Уилл Сэндерсон, Таня Солнье, Габриель Роз, Теренс Келли, Колин Форд, Мишель Харрисон, Ева Пэдберг, Даррен Шахлави, Аарон Перл, Майкл Эклунд, Рон Селмур, Пол Ву, Стефен Парк, Марсель Мейлар, Дэниэл Бойло, Кристофер Розамунд, Сэйдж Броклбэнк, Кэрри Флеминг, Жаклин Энн Стюарт, Трэвис МакДональд, Алана Каган, Наоми Лазарус, Дункан Фрайзер, Эйдан Уильямсон
    О фильме:
    На фоне войны в королевстве Эхб между зловещим Галлианом и правящим королем Конредом, Фермер Дэймон ищет свою похищенную жену Солану и попутно мстит за смерть своего сына, убитого воинами-зверями Крагами.


    Страна: Германия, Канада, США, Boll Kino Beteiligungs GmbH Co. KG, Brightlight Pictures Inc., Herold Productions
    Продолжительность: 02:02:00
    Перевод: Дублированный

    Кодек: MPEG-2
    Качество: DVD-9
    Видео: PAL 16:9 (720x576) VBR
    Звук: Русский, английский (Dolby AC3, 6 ch)
    Субтитры: Русские, английские

    Релиз группы NovaLan
    Автор релиза Sergei7721




    DVDInfo
    Title:
    Size: 7.88 Gb ( 8 259 650 KBytes ) - DVD-9
    Enabled regions: 1, 2, 3, 4, 5, 6, 7, 8

    VTS_01 :
    Play Length: 00:01:32
    Video: PAL 16:9 (720x576) VBR, Auto PanScan
    Audio:
    Russian (Dolby AC3, 6 ch)
    English (Dolby AC3, 6 ch)
    Subtitles:
    Not specified

    VTS_02 :
    Play Length: 02:02:00
    Video: PAL 16:9 (720x576) VBR, Auto PanScan
    Audio:
    Russian (Dolby AC3, 6 ch)
    English (Dolby AC3, 6 ch)
    Subtitles:
    Russian
    English

    Menu Video:
    NTSC 4:3 (720x480) VBR
    Auto PanScan, Auto Letterboxed
    Menu English Language Unit :
    Root Menu
    Subpicture Menu
    Audio Menu

    MediaInfo

    Полное имя : C:UsersСергейDownloadsРаздачиVo.imja.korolja.2007.DVD9.NovaLanVIDEO_TSVTS_02_1.VOB
    Формат : MPEG-PS
    Размер файла : 1024 Мбайт
    Продолжительность : 15 м.
    Режим общего битрейта : Переменный
    Общий поток : 9173 Кбит/сек

    Видео
    Идентификатор : 224 (0xE0)
    Формат : MPEG Video
    Версия формата : Version 2
    Профиль формата : Main@Main
    Параметр BVOP формата : Да
    Параметр матрицы формата : Выборочная
    Продолжительность : 15 м.
    Вид битрейта : Переменный
    Битрейт : 8094 Кбит/сек
    Максимальный битрейт : 8900 Кбит/сек
    Ширина : 720 пикселей
    Высота : 576 пикселей
    Соотношение сторон : 16:9
    Частота кадров : 25,000 кадров/сек
    Стандарт вещания : PAL
    Цветовое пространство : YUV
    Субдискретизация насыщенности : 4:2:0
    Битовая глубина : 8 бит
    Тип развёртки : Чересстрочная
    Порядок развёртки : Верхнее поле первое
    Метод сжатия : С потерями
    Бит/(Пиксели*Кадры) : 0.781
    Размер потока : 904 Мбайт (88%)

    Аудио #1
    Идентификатор : 189 (0xBD)-128 (0x80)
    Формат : AC-3
    Формат/Информация : Audio Coding 3
    Расширение режима : CM (complete main)
    Параметр Endianness формата : Big
    Режим смешивания : DVD-Video
    Продолжительность : 15 м.
    Вид битрейта : Постоянный
    Битрейт : 448 Кбит/сек
    Каналы : 6 каналов
    Расположение каналов : Front: L C R, Side: L R, LFE
    Частота : 48,0 КГц
    Битовая глубина : 16 бит
    Метод сжатия : С потерями
    Размер потока : 50,0 Мбайт (5%)

    Аудио #2
    Идентификатор : 189 (0xBD)-129 (0x81)
    Формат : AC-3
    Формат/Информация : Audio Coding 3
    Расширение режима : CM (complete main)
    Параметр Endianness формата : Big
    Режим смешивания : DVD-Video
    Продолжительность : 15 м.
    Вид битрейта : Постоянный
    Битрейт : 448 Кбит/сек
    Каналы : 6 каналов
    Расположение каналов : Front: L C R, Side: L R, LFE
    Частота : 48,0 КГц
    Битовая глубина : 16 бит
    Метод сжатия : С потерями
    Размер потока : 50,0 Мбайт (5%)

    Скриншоты меню




    Релиз от:
    Залил: Sergei7721
    Размер: 7.88 GB (8457709568 Bytes)
    Рейтинг →
     (голосов: 1, оценка 3/5, голосовать можно 1 раз )

    Другие торренты по теме:

  • Во имя справедливости / Нико-4 / Out for Justice (1991) BDRip 1080p
  • Во имя короля 2 / In the Name of the King 2: Two Worlds (2011) DVD9 от NovaLan
  • Во имя отца / In the Name of the Father (1993) Blu-ray Disc
  • Нико-4 / Во имя справедливости / Out for Justice (1991) BDRip от HQCLUB | ReRip
  • Во имя отца / In the Name of the Father (1993) BDRip от HQ-ViDEO
  • Во имя справедливости / Out for Justice (1991) BDRip by msltel | D, P, P2, A скачать через торрент бесплатно
  • Во имя справедливости / Out for Justice (1991) BDRip 720p by msltel | D, P, P2, A скачать через торрент бесплатно
  • Во имя справедливости / Out for Justice (1991) BDRip 1080p by msltel | D, P, P2, A


    • Комментарии (0):

      Информация

      Информация

        Посетители, находящиеся в группе Гости, не могут оставлять комментарии в данной новости.

        ↓ Меню



        ↓ Опрос

        А Вы добавили сайт в закладки?
        Да
        Не


        Top 10 за месяц (Фильмы)