.
Авторизация | Регистрация
Хочешь лучшие торренты? Добавь свой email!
Добавить
» » Гримм Братья - По следам Бременских Музыкантов (1973) (2012) FLAC скачать торрент бесплатно




    Гримм Братья - По следам Бременских Музыкантов (1973) (2012) FLAC скачать торрент бесплатно

    Опубликовал: Админ | Дата: 27-02-2015, 11:09 | Просмотров: 522

    Фантазия В. Ливанова и Ю. Энтина на тему сказки братьев Гримм



    Жанр: Музыкальная сказка
    Год выпуска: 1973 г.
    Год оцифровки: 2012 г.
    Издательство: Мелодия
    Номер по каталогу: ЗЗД35003-04
    Релиз: Юрий 1963
    Аудио кодек: FLAC
    Тип рипа: image .cue
    Битрейт: lossless
    Исполнители: М. Магомаев, Э. Жерздева и др.
    Тип : Аудиоспектакль
    Общее время звучания: 25:11
    Наличие сканов в содержимом раздачи: есть

    Аннотация:
    ВСЕМ ДРУЗЬЯМ БРЕМЕНСКИХ МУЗЫКАНТОВ.
    Дорогие ребята! Папы и мамы!
    Вы купили эту пластинку и правильно сделали. А если еще не купили, а держите в руках в магазине, то немедленно покупайте. И вот почему.
    Несколько лет тому назад в продаже появилась пластинка Бременские музыканты. А на экранах — мультипликационный фильм с таким же названием. Я тогда советовал вам купить эту пластинку и оказался прав. Она так понравилась и детям, и взрослым, что скоро все до одной пластинки были раскуплены. А было их выпущено несколько миллионов. И ведь они не пылились в шкафу, а игрались во всех домах и квартирах. Уж больно весела была сказка и задорны песни в ней!
    Придумали эту сказку два веселых человека и один очень веселый Веселые — это поэт Юрий Эптин и режиссер Василий Ливанов, а очень веселый — это композитор Геннадий Гладков.
    И вот они написали новую историю. Если вы думаете, что за это время они поскучнели, вы ошибаетесь. Веселые стали еще веселее, а очень веселый — композитор Геннадий Гладков — настолько развеселился, что сам стал петь как актер. Он выступает в роли короля. Роли сыщика, трубадура и атаманши исполняет Муслим Магомаев.
    А теперь ставьте пластинку на проигрыватель и приглашайте на сказку своих лучших друзей.

    Музыка Геннадия Гладкова
    Сказка Василия Ливанова и Юрия Энтина
    Стихи Юрия Энтина
    От автора Олег Табаков

    Действующие лица и исполнители:
    Принцесса - Эльмира Жерздева
    Трубадур, Атаманша, Сыщик - Муслим Магомаев
    Король - Геннадий Гладков

    Инструментальный ансамбль п/у Константина Кримца
    Анатолий Горохов и Вокальный ансамбль
    Режиссёр Василий Ливанов
    Звукорежиссёр В. Бабушкин

    Техническая информация

    Источник оцифровки: Юрий 1963
    Код класса состояния винила: NM
    Устройство воспроизведения: Корвет ЭП-003
    Головка звукоснимателя: EXCEL ES-70S
    Предварительный усилитель: клон CREEK OBH-8SE
    АЦП: M-Audio Audiophile 2496
    Программа-оцифровщик: WaveLab 6.11
    Формат записи: mono 24/96
    Формат раздачи: mono 24/96
    Обработка: Удаление крупных щелчков вручную, подавление рокота в паузах


    Уровень записи, спектр, АЧХ






    Содержание индексной карты (.CUE)

    REM GENRE Музыкальная сказка
    REM DATE 1973
    PERFORMER Variable Artists
    TITLE ПО СЛЕДАМ БРЕМЕНСКИХ МУЗЫКАНТОВ
    FILE Po sledam bremenskih muzikantov Side_1.flac flac
    TRACK 01 AUDIO
    TITLE Вступление
    INDEX 01 00:00:00
    TRACK 02 AUDIO
    TITLE Песня гениального сыщика
    INDEX 01 00:31:00
    TRACK 03 AUDIO
    TITLE Песенка глупого короля (такая-сякая)
    INDEX 01 01:47:00
    TRACK 04 AUDIO
    TITLE Отдых... похищение принцессы... погоня
    INDEX 01 04:24:00
    TRACK 05 AUDIO
    TITLE Солнце взойдёт (Луч солнца золотого...)
    INDEX 01 09:23:00
    TRACK 06 AUDIO
    TITLE Дуэт глупого короля и принцессы (Ах, ты бедная моя трубадурочка...)
    INDEX 01 11:46:00
    FILE Po sledam bremenskih muzikantov Side_2.flac flac
    TRACK 07 AUDIO
    TITLE Пусть нету ни кола и ни двора
    INDEX 01 00:00:00
    TRACK 08 AUDIO
    TITLE Песни иностранных гастролёров
    INDEX 01 04:43:00
    TRACK 09 AUDIO
    TITLE Финал
    INDEX 01 08:20:00


    Треклист:

    Сторона 1
    01. Вступление (0:31)
    02. Песня гениального сыщика (1:16)
    03. Песенка глупого короля (такая-сякая) (2:37)
    04. Отдых... похищение принцессы... погоня (4:59)
    05. Солнце взойдёт (Луч солнца золотого...) (2:23)
    06. Дуэт глупого короля и принцессы (Ах, ты бедная моя трубадурочка...) (1:41)

    Сторона 2
    07. Пусть нету ни кола и ни двора (4:43)
    08. Песни иностранных гастролёров (3:37)
    09. Финал (3:24)

    Залил: geka9999
    Размер: 236.38 MB (247866500 Bytes)
    Рейтинг →
     (голосов: 1, оценка 4/5, голосовать можно 1 раз )

    Другие торренты по теме:

  • Гримм Братья - Бременские музыканты (1969) (2012) FLAC
  • Братья Гримм / The Brothers Grimm (2005) BDRip-AVC от 0ptimus | D, P2, A
  • Братья Гримм / The Brothers Grimm (2005) HDRip от Scarabey | D скачать через торрент бесплатно
  • Братья Гримм / The Brothers Grimm (2005) BDRip 1080p от NNNB
  • Братья Гримм - Лучшие сказки (2011) PDF скачать через торрент бесплатно
  • Братья Гримм / The Brothers Grimm / 2005 / ДБ, АП (Визгунов), СТ / DVD-9
  • Братья Гримм / The Brothers Grimm (2005) BDRip-AVC от 0ptimus | D, P2, A


    • Комментарии (0):

      Информация

      Информация

        Посетители, находящиеся в группе Гости, не могут оставлять комментарии в данной новости.

        ↓ Меню



        ↓ Опрос

        А Вы добавили сайт в закладки?
        Да
        Не


        Top 10 за месяц (Книги)